<?xml version="1.0" standalone="no"?>
<!DOCTYPE svg PUBLIC "-//W3C//DTD SVG 1.1//EN" "http://www.w3.org/Graphics/SVG/1.1/DTD/svg11.dtd" >
<svg xmlns="http://www.w3.org/2000/svg">
<metadata>
<json>
{
	"fontFamily": "Appfont-Webfont",
	"majorVersion": 1,
	"minorVersion": 2,
	"version": "Version 1.2",
	"fontId": "Appfont-Webfont",
	"psName": "Appfont-Webfont",
	"subFamily": "Regular",
	"fullName": "Appfont-Webfont",
	"description": "Font generated by IcoMoon."
}
</json>
</metadata>
<defs>
<font id="Appfont-Webfont" horiz-adv-x="1024">
<font-face units-per-em="1024" ascent="960" descent="-64" />
<missing-glyph horiz-adv-x="1024" />
<glyph unicode="&#x20;" d="" horiz-adv-x="512" />
<glyph unicode="&#xe600;" d="M271.799 948.151l157.111-420.133c4.389-11.849-4.389-24.43-16.969-24.43h-65.097c-7.753 0-14.629 4.974-17.115 12.288l-26.185 77.093c-2.487 7.314-9.362 12.288-17.115 12.288h-144.823c-7.607 0-14.482-4.827-17.115-11.995l-27.355-77.531c-2.487-7.168-9.362-11.995-17.115-11.995h-61.879c-12.581 0-21.358 12.581-16.969 24.43l158.866 420.133c2.633 7.022 9.362 11.703 16.969 11.703h77.824c7.607 0 14.336-4.681 16.969-11.849zM273.262 680.009l-57.49 167.497h-1.317l-59.392-167.497h118.199zM267.557 307.858h-208.896c-9.216 0-16.677 7.461-16.677 16.677v50.907c0 9.216 7.461 16.677 16.677 16.677h325.778c9.216 0 16.677-7.461 16.677-16.677v-56.466c0-3.95-1.317-7.753-3.95-10.679l-240.786-288.037h234.496c9.216 0 16.677-7.461 16.677-16.677v-50.907c0-9.216-7.461-16.677-16.677-16.677h-351.378c-9.216 0-16.677 7.461-16.677 16.677v56.466c0 3.95 1.317 7.753 3.95 10.679l240.786 288.037zM659.017 727.845c0-40.719-33.009-73.728-73.728-73.728s-73.728 33.009-73.728 73.728c0 40.719 33.009 73.728 73.728 73.728s73.728-33.009 73.728-73.728zM659.017 442.734c0-40.719-33.009-73.728-73.728-73.728s-73.728 33.009-73.728 73.728c0 40.719 33.009 73.728 73.728 73.728s73.728-33.009 73.728-73.728zM659.017 157.623c0-40.719-33.009-73.728-73.728-73.728s-73.728 33.009-73.728 73.728c0 40.719 33.009 73.728 73.728 73.728s73.728-33.009 73.728-73.728z" horiz-adv-x="659" data-tags="a-z" />
<glyph unicode="&#xe601;" d="M317.046 863.877c0-53.088-40.416-96.123-90.271-96.123s-90.271 43.036-90.271 96.123c0 53.088 40.416 96.123 90.271 96.123s90.271-43.036 90.271-96.123zM507.83 164.238c-5.121 0-51.207 0-103.878 0 0 54.133 0 102.415 0 102.415s-16.094 10.534-33.651 0c0-1.902 0-51.207 0-102.415-54.133 0-103 0-103 0s-10.534-19.020 0-36.577c1.902 0 51.793 0 103 0 0-54.133 0-101.683 0-101.683s16.094-13.021 33.651 0c0 5.121 0 51.939 0 101.683 54.133 0 103.878 0 103.878 0s13.021 16.094 0 36.577zM536.067 294.012c-28.676 28.676-64.082 47.989-102.854 56.474 11.119 5.999 19.020 17.849 19.020 31.456v323.045c0 12.582-10.534 22.824-23.116 22.824 0 0-202.488 28.822-405.855 0-12.143 0-23.263-10.241-23.263-22.824v-322.899c0-19.751 16.533-34.967 36.284-34.967h54.572v-411.122h270.667v1.609c8.778-1.024 17.41-1.609 26.189-1.609 56.035 0 108.706 21.8 148.355 61.449s61.449 92.319 61.449 148.355c0 55.889-21.8 108.56-61.449 148.209zM387.713-29.472c-96.562 0-175.129 78.567-175.129 175.129s78.567 175.129 175.129 175.129 175.129-78.567 175.129-175.129-78.567-175.129-175.129-175.129z" horiz-adv-x="598" data-tags="add_user" />
<glyph unicode="&#xe602;" d="M1697.503 960c-31.613-31.613-553.922-553.922-790.794-790.794l-789.877 790.336c0 0-93.924-16.494-116.832-116.832 31.613-31.613 552.548-552.548 790.336-790.336 71.016-71.016 116.374-116.374 116.374-116.374l907.168 907.168c0.458 0-16.036 93.924-116.374 116.832z" horiz-adv-x="1814" data-tags="arrow_down" />
<glyph unicode="&#xe603;" d="M578.165 1.389c-17.833 17.833-313.248 313.248-446.611 446.611l446.094 446.094c0 0-9.304 52.983-65.906 65.906-17.833-17.833-311.697-311.697-445.835-445.835-40.061-40.061-65.906-65.906-65.906-65.906l512.258-512.258c0.258-0.517 53.242 8.787 65.906 65.389z" horiz-adv-x="578" data-tags="arrow_left" />
<glyph unicode="&#xe604;" d="M0 894.319c17.842-17.842 312.63-312.63 446.319-446.319l-446.061-446.061c0 0 9.309-53.010 65.939-65.939 17.842 17.842 311.855 311.855 446.061 446.061 40.081 40.081 65.681 65.681 65.681 65.681l-512.259 512.259c0 0-52.752-9.051-65.681-65.681z" horiz-adv-x="578" data-tags="arrow_right" />
<glyph unicode="&#xe605;" d="M116.832-64c31.613 31.613 553.922 553.922 790.794 790.794l790.336-790.336c0 0 93.924 16.494 116.832 116.832-31.613 31.613-552.548 552.548-790.336 790.336-71.016 71.016-116.374 116.374-116.374 116.374l-908.084-907.626c0 0 16.494-93.924 116.832-116.374z" horiz-adv-x="1815" data-tags="arrow_up" />
<glyph unicode="&#xe606;" d="M514.947-64l-107.368 107.368c0 0 871.158 871.158 916.632 916.632 107.368-8.421 107.368-107.368 107.368-107.368l-916.632-916.632zM0 450.947c30.737 76.211 107.368 107.368 107.368 107.368l514.947-514.947-107.368-107.368c0 0-505.684 505.684-514.947 514.947z" horiz-adv-x="1432" data-tags="check" />
<glyph unicode="&#xe607;" d="M0 830.924c24.803 103.767 129.076 129.076 129.076 129.076s850.381-850.887 894.418-895.431c-21.26-117.94-129.076-129.076-129.076-129.076s-878.22 879.233-894.418 895.431zM898.974 959.494c103.767-24.803 129.076-129.076 129.076-129.076s-850.887-850.381-895.431-894.418c-117.94 21.26-129.076 129.076-129.076 129.076s879.233 878.22 895.431 894.418z" horiz-adv-x="1028" data-tags="close" />
<glyph unicode="&#xe608;" d="M978.995 1.439c-17.847 17.847-312.709 312.709-446.432 446.432l446.173 446.173c0 0-9.311 53.023-65.956 65.956-17.847-17.847-311.933-311.933-446.173-446.173-40.091-40.091-65.697-65.697-65.697-65.697l512.129-512.129c0-0.259 53.023 8.794 65.956 65.439zM578.085 1.439c-17.847 17.847-312.709 312.709-446.432 446.432l446.173 446.173c0 0-9.311 53.023-65.956 65.956-17.847-17.847-311.933-311.933-446.173-446.173-40.091-40.091-65.697-65.697-65.697-65.697l512.129-512.129c0-0.259 53.023 8.794 65.956 65.439z" horiz-adv-x="979" data-tags="doubled_arrow_left" />
<glyph unicode="&#xe609;" d="M0 894.319c17.842-17.842 312.63-312.63 446.319-446.319l-446.061-446.061c0 0 9.309-53.010 65.939-65.939 17.842 17.842 311.855 311.855 446.061 446.061 40.081 40.081 65.681 65.681 65.681 65.681l-512.259 512.259c0 0-52.752-9.051-65.681-65.681zM400.808 894.319c17.842-17.842 312.63-312.63 446.319-446.319l-446.061-446.061c0 0 9.309-53.010 65.939-65.939 17.842 17.842 311.855 311.855 446.061 446.061 40.081 40.081 65.681 65.681 65.681 65.681l-512.259 512.259c0 0-52.752-9.051-65.681-65.681z" horiz-adv-x="979" data-tags="doubled_arrow_right" />
<glyph unicode="&#xe60a;" d="M217.558 90.646c0 0-108.998 40.82-214.924 0 0 22.385 0 795.176 0 835.996 115.875 75.202 214.924 0 214.924 0v-835.996zM0 55.386c19.898-57.060 109.437-119.386 109.437-119.386s87.638 59.693 107.535 119.386c-5.267 0-106.95 46.818-216.973 0z" horiz-adv-x="217" data-tags="edit" />
<glyph unicode="&#xe60b;" d="M357.427 496.062c10.241-11.266 15.947-25.896 15.947-40.966v-519.096l176.153 193.71c16.679 20.044 25.896 29.847 25.896 49.744v275.495c0 15.216 5.706 29.847 15.947 40.966l357.427 387.859-33.504 76.226h-881.79l-33.504-76.226 357.427-387.713z" horiz-adv-x="949" data-tags="filter" />
<glyph unicode="&#xe60c;" d="M444.9 851.182l328.789-327.33h-759.394c0 0-31.508-81.687-0.583-151.704 18.088 0 759.977 0 759.977 0l-329.372-327.622c-28.882-28.882 74.977-132.157 103.859-103.567l506.749 507.040-506.165 507.040c-26.256 28.299-132.741-74.977-103.859-103.859zM2025.828 738.571c-18.963 0-1045.88 0-1075.346 0-47.553 75.268 0 150.245 0 150.245h1075.346c0 0 36.759-75.268 0-150.245zM2028.745 372.732c-15.462 0-858.585 0-882.799 0-39.093 75.268 0 150.245 0 150.245h882.799c0 0 30.049-74.977 0-150.245zM2025.828 12.144c-18.963 0-1045.589 0-1075.346 0-47.553 75.268 0 150.245 0 150.245h1075.346c0 0 36.759-74.977 0-150.245z" horiz-adv-x="2042" data-tags="import" />
<glyph unicode="&#xe60d;" d="M191.049 224.475v-288.329h124.343c0 0 0 144.238 0 288.329h-124.343zM191.049 922.99v-385.317h124.343c0 131.803 0 237.129 0 245.906 0 7.899 5.413 14.19 13.166 15.799 275.017 56.613 523.557 12.142 582.656-0.146 7.753-1.609 13.312-8.631 13.312-16.384v-846.848h126.83v986.99c-0.146 0-411.648 83.383-860.306 0zM447.488 273.92v-100.937c0-11.264 12.142-18.286 21.797-12.581l374.345 216.064-374.345 216.064c-9.655 5.559-21.797-1.463-21.797-12.581v-92.891c0-8.046-6.583-14.629-14.629-14.629h-432.859v-184.027h432.859c8.046 0 14.629-6.437 14.629-14.482z" horiz-adv-x="1051" data-tags="login" />
<glyph unicode="&#xe60e;" d="M183.904 924.538v-369.127l124.849 72.096c0 73.122-0.147 130.564-0.293 156.501 0 7.913 5.422 14.654 13.188 16.266 275.489 56.71 524.456 12.309 583.657 0.147 7.766-1.612 13.188-8.353 13.188-16.266v-848.302h127.048v988.685c0 0-412.062 83.526-861.637 0zM183.904 193.612v-257.612h124.703c0 0 0 107.118 0 185.662l-124.703 71.95zM396.822 477.161v101.11c0 11.283-12.163 18.317-21.834 12.602l-374.988-216.288 374.988-216.435c9.671-5.568 21.834 1.465 21.834 12.602v93.051c0 8.060 6.594 14.654 14.654 14.654h433.603v184.197h-433.603c-8.060 0-14.654 6.448-14.654 14.507z" horiz-adv-x="1046" data-tags="logout" />
<glyph unicode="&#xe60f;" d="M414.281 518.802h274.286v-582.802h-274.286v582.802zM743.131 349.403h-384.585c-20.041 0-36.279 16.238-36.279 36.279v327.241c0 12.727 8.923 23.113 23.113 23.113 205.97 29.111 410.917 0 410.917 0 12.727 0 23.113-10.386 23.113-23.113v-327.241c0-20.041-16.238-36.279-36.279-36.279zM642.779 862.574c0-53.807-40.934-97.426-91.429-97.426s-91.429 43.619-91.429 97.426c0 53.807 40.934 97.426 91.429 97.426s91.429-43.619 91.429-97.426zM826.953 470.967h209.774v-445.879h-209.774v445.879zM1069.934 352.037h-206.702c-20.041 0-36.279 16.238-36.279 36.279v236.398c0 12.727 10.386 23.113 23.113 23.113 0 0 81.774 22.235 233.179 0 12.727 0 23.113-10.386 23.113-23.113v-236.398c-0.146-20.041-16.384-36.279-36.425-36.279zM1001.765 744.667c0-41.204-31.306-74.606-69.925-74.606s-69.925 33.402-69.925 74.606c0 41.204 31.306 74.606 69.925 74.606s69.925-33.402 69.925-74.606zM70.363 470.967h209.774v-445.879h-209.774v445.879zM243.858 352.037h-207.579c-20.041 0-36.279 16.238-36.279 36.279v236.398c0 12.727 11.995 23.113 23.113 23.113 152.137 22.235 233.911 0 233.911 0 12.727 0 23.113-10.386 23.113-23.113v-236.398c0-20.041-16.238-36.279-36.279-36.279zM245.175 744.667c0-41.204-31.306-74.606-69.925-74.606s-69.925 33.402-69.925 74.606c0 41.204 31.306 74.606 69.925 74.606s69.925-33.402 69.925-74.606z" horiz-adv-x="1106" data-tags="mgmt" />
<glyph unicode="&#xe610;" d="M217.952 405.96c-25.835 42.275 0 84.55 0 84.55s558.268 0 587.156 0c31.706-45.798 0-84.55 0-84.55s-576.587 0-587.156 0zM512-64c-136.69 0-265.394 53.314-361.923 150.077s-150.077 225.233-150.077 361.923 53.314 265.394 150.077 361.923 225.233 150.077 361.923 150.077 265.394-53.314 361.923-150.077 150.077-225.233 150.077-361.923-53.314-265.394-150.077-361.923-225.233-150.077-361.923-150.077zM512 875.45c-235.802 0-427.45-191.648-427.45-427.45s191.648-427.45 427.45-427.45 427.45 191.648 427.45 427.45-191.883 427.45-427.45 427.45z" data-tags="minus" />
<glyph unicode="&#xe611;" d="M218.052 405.705c-25.847 42.295 0 84.589 0 84.589s558.524 0 587.425 0c31.721-45.819 0-84.589 0-84.589s-576.852 0-587.425 0zM470.88 743.123c42.295 25.847 84.589 0 84.589 0s0-558.524 0-587.425c-45.819-31.721-84.589 0-84.589 0s0 576.852 0 587.425zM512.235-64.47c-136.753 0-265.516 53.338-362.089 150.146s-150.146 225.336-150.146 362.089 53.338 265.516 150.146 362.089 225.336 150.146 362.089 150.146 265.516-53.338 362.089-150.146 150.146-225.336 150.146-362.089-53.338-265.516-150.146-362.089-225.336-150.146-362.089-150.146zM512.235 875.411c-235.91 0-427.646-191.736-427.646-427.646s191.736-427.646 427.646-427.646 427.646 191.736 427.646 427.646-191.971 427.646-427.646 427.646z" data-tags="plus" />
<glyph unicode="&#xe612;" d="M139.378-64c-312.889 512 0 1024 0 1024s6761.244 0 7111.111 0c384-554.667 0-1024 0-1024s-6983.111 0-7111.111 0z" horiz-adv-x="7421" data-tags="pure_minus" />
<glyph unicode="&#xe613;" d="M19.254 376.485c-43.223 70.729 0 141.458 0 141.458s934.017 0 982.348 0c53.047-76.623 0-141.458 0-141.458s-964.666 0-982.348 0zM442.057 940.746c70.729 43.223 141.458 0 141.458 0s0-934.017 0-982.348c-76.623-53.047-141.458 0-141.458 0s0 964.666 0 982.348z" horiz-adv-x="1025" data-tags="pure_plus" />
<glyph unicode="&#xe614;" d="M1026.779 57.563l-258.487 258.341c-7.899 7.899-9.509 20.041-3.95 29.696 37.010 63.927 57.344 138.825 54.711 218.551-7.168 217.819-185.783 392.923-403.602 395.849-230.4 3.218-418.523-184.905-415.451-415.305 2.926-218.697 179.346-397.897 398.043-403.895 80.311-2.194 155.648 18.725 219.721 56.759 9.655 5.705 21.943 4.096 29.842-3.803 0 0 238.592-239.47 257.755-257.755 93.184 25.893 121.417 121.563 121.417 121.563zM409.6 237.056c-172.763 0-313.198 140.581-313.198 313.344s140.434 313.198 313.198 313.198 313.344-140.581 313.344-313.344-140.581-313.198-313.344-313.198z" horiz-adv-x="1027" data-tags="search" />
<glyph unicode="&#xe615;" d="M1020.896 351.69c0 0 30.748 96.383 0 189.515-35.183 0-88.992 0-88.992 0-11.531 0-21.731 7.244-25.574 18.035-7.539 20.991-20.696 56.322-34 82.931-5.174 10.496-3.252 23.209 5.026 31.487l61.348 61.496c0 0-50.557 96.679-134.079 133.932-10.644-10.791-59.87-60.314-59.87-60.314-8.722-8.87-22.322-10.791-33.261-4.878-25.278 13.748-52.479 24.983-79.975 33.261-11.678 3.548-19.513 14.191-19.513 26.313v86.479c0 0-93.87 22.618-189.515 0 0-13.6 0-86.479 0-86.479 0-12.122-7.983-22.913-19.661-26.313-28.974-8.426-56.47-19.957-82.192-34.148-10.644-5.913-23.948-3.991-32.522 4.583l-60.757 60.609c0 0-99.783-50.113-134.079-133.932 12.713-12.713 61.201-61.053 61.201-61.053 8.574-8.574 10.496-21.583 4.73-32.226-13.748-25.426-24.835-52.774-32.965-80.418-3.4-11.531-14.044-19.365-26.018-19.365h-86.183c0 0-31.635-94.609 0-189.515 22.618 0 87.809 0 87.809 0 11.678 0 21.878-7.391 25.574-18.478 9.461-28.383 25.131-62.679 34.887-82.635 5.026-10.348 2.809-22.618-5.174-30.748l-62.974-62.974c0 0 45.383-83.966 133.932-134.079 9.165 9.165 62.974 62.974 62.974 62.974 8.131 8.131 20.4 10.2 30.748 5.47 19.809-9.165 53.513-24.096 82.044-33.409 11.235-3.696 18.922-14.044 18.922-26.018v-86.183c0 0 98.896-21.731 189.515 0 0 13.6 0 89.879 0 89.879 0 11.087 6.8 21.139 17.148 25.278l82.931 32.965c10.052 3.991 21.583 1.626 29.27-6.061l63.861-64.009c0 0 92.688 49.227 133.932 133.932-9.461 9.461-63.566 63.566-63.566 63.566-7.835 7.835-10.2 19.661-5.913 29.861l35.479 83.966c4.287 10.052 14.191 16.704 25.131 16.704h90.323zM520.204 149.758c-82.34-1.035-159.949 31.044-217.306 90.027-53.070 54.548-83.375 127.723-84.409 203.706-1.035 82.34 31.044 159.949 90.027 217.306 54.548 53.070 127.723 83.375 203.706 84.409 82.34 1.035 159.949-31.044 217.306-90.027 53.070-54.548 83.375-127.723 84.409-203.706 1.035-82.34-31.044-159.949-90.027-217.306-54.4-53.070-127.575-83.375-203.706-84.409z" horiz-adv-x="1035" data-tags="settings" />
<glyph unicode="&#xe616;" d="M900.741 810.003c-96.711 96.711-225.28 149.997-362.003 149.997s-265.292-53.286-362.003-149.997c-96.711-96.711-149.997-225.28-149.997-362.003 0-7.396 0.19-14.791 0.569-22.187 0.19-3.034 2.086-5.499 4.93-6.447l62.957-20.67c4.93-1.707 9.861 2.276 9.481 7.585-1.327 13.843-1.896 27.876-1.896 41.908 0 116.433 45.321 226.039 127.621 308.338 81.73 81.541 192.664 127.621 308.338 127.621 116.433 0 226.039-45.321 308.338-127.81 82.299-82.299 127.81-191.905 127.81-308.338s-45.321-226.039-127.81-308.338c-82.299-82.489-191.905-127.81-308.338-127.81s-226.039 45.321-308.338 127.81c-9.481 9.481-18.584 19.532-27.117 29.582l74.145 66.37c8.533 7.585 5.499 21.428-5.31 25.031l-272.119 89.316 58.596-280.462c2.276-11.188 15.739-15.55 24.273-7.964l63.716 57.079c9.481-11.188 19.532-22.187 29.961-32.616 96.711-96.711 225.28-149.997 362.003-149.997s265.292 53.286 362.003 149.997c96.711 96.711 149.997 225.28 149.997 362.003 0.19 136.723-53.096 265.292-149.807 362.003zM577.422 445.535v370.916c0 0-37.926 15.55-75.852 0v-400.119c0-6.068 2.465-11.947 6.827-16.308l179.39-180.148c0 0 40.391 16.687 54.044 53.476-3.413 3.793-108.847 107.899-158.91 159.099-3.603 3.603-5.499 8.344-5.499 13.084z" horiz-adv-x="1051" data-tags="application" />
<glyph unicode="&#xe617;" d="M669.454 747.331l-68.744-705.435c-0.731-7.313-6.874-13.018-14.334-13.018h-444.060c-7.46 0-13.603 5.558-14.334 13.018l-68.744 704.265c-0.731 8.045-8.045 13.895-16.089 12.871-7.167-0.878-16.967-2.34-29.399-4.534-7.313-1.316-12.433-8.045-11.701-15.504 9.361-96.535 66.989-687.883 76.058-779.299 0.731-6.874 6.143-12.286 13.018-12.871 246.602-21.793 489.987-4.534 545.86 0 6.874 0.585 12.433 5.997 13.164 12.871l76.497 780.030c0.731 7.167-4.095 13.749-11.116 15.358-7.46 1.755-17.991 3.803-29.984 5.119-8.045 0.878-15.358-4.827-16.089-12.871zM376.924 83.435h-25.158c-8.045 0-14.48 6.436-14.48 14.48v649.27c0 7.606 5.851 13.895 13.456 14.48 10.385 0.878 20.038 0.439 27.498-0.146s13.31-6.874 13.31-14.48v-649.123c-0.146-8.045-6.728-14.48-14.626-14.48zM507.1 82.85l-25.45-0.146c-8.191 0-14.773 6.728-14.334 14.919 4.827 90.392 29.692 560.487 34.665 646.929 0.439 7.752 7.021 13.603 14.626 13.456 11.116-0.293 20.185-1.17 26.913-1.901 7.46-0.878 13.018-7.313 12.579-14.919l-34.957-644.735c-0.293-7.606-6.436-13.456-14.041-13.603zM215.741 82.85l28.229-0.146c7.606 0 13.603 6.289 13.164 13.895l-34.811 648.831c-0.439 7.167-6.436 12.725-13.749 12.433-7.752-0.293-18.137-1.024-28.814-2.487-6.874-0.878-11.847-6.874-11.409-13.749 4.242-81.908 29.838-562.827 34.372-646.198 0.293-7.021 5.997-12.433 13.018-12.579zM707.922 881.163c-89.514 13.895-177.127 20.77-260.498 23.256-11.116 0.293-20.185 9.507-20.185 20.623v1.17c0 18.576-14.773 33.787-33.348 33.787h-62.894c-18.576 0-34.080-15.212-34.080-33.787v-1.17c0-11.116-8.63-20.185-19.746-20.623-83.371-2.487-170.399-9.361-259.913-23.256-10.092-1.609-17.259-10.239-17.259-20.331v-45.050c0-12.579 10.531-22.232 22.964-20.331 118.621 17.113 236.656 22.525 339.481 22.086 102.824 0.439 221.152-4.827 339.773-22.086 12.433-1.755 23.256 7.898 23.256 20.331v45.050c0.146 10.092-7.606 18.722-17.552 20.331z" horiz-adv-x="727" data-tags="trashbin" />
<glyph unicode="&#xe618;" d="M756.006 730.18c0-126.926-96.542-229.82-215.633-229.82s-215.633 102.894-215.633 229.82c0 126.926 96.542 229.82 215.633 229.82s215.633-102.894 215.633-229.82zM1077.908-64h-1077.908v393.092c0 60.615 52.619 109.88 109.88 109.88 430.493 50.813 858.148 0 858.148 0 60.615 0 109.88-49.265 109.88-109.88v-393.092z" horiz-adv-x="1078" data-tags="user" />
<glyph unicode="&#xe619;" d="M270.082 377.846l156.109-417.559c4.389-11.705-4.243-24.287-16.825-24.287h-64.814c-7.754 0-14.484 4.828-16.972 12.143l-26.043 76.665c-2.487 7.315-9.364 12.143-16.972 12.143h-143.966c-7.608 0-14.338-4.828-16.972-11.997l-27.067-76.957c-2.487-7.169-9.364-11.997-16.972-11.997h-61.595c-12.582 0-21.214 12.582-16.825 24.287l157.865 417.559c2.634 7.023 9.364 11.558 16.825 11.558h77.396c7.462 0 14.192-4.536 16.825-11.558zM271.399 111.275l-57.206 166.351h-1.317l-59.108-166.351h117.631zM265.693 876.313h-207.609c-9.217 0-16.533 7.462-16.533 16.533v50.622c0 9.217 7.462 16.533 16.533 16.533h323.777c9.217 0 16.533-7.462 16.533-16.533v-56.182c0-3.95-1.317-7.608-3.804-10.68l-239.358-286.176h233.066c9.217 0 16.533-7.462 16.533-16.533v-50.622c0-9.217-7.462-16.533-16.533-16.533h-349.234c-9.217 0-16.533 7.462-16.533 16.533v56.182c0 3.95 1.317 7.608 3.804 10.68l239.358 286.176zM654.868 729.421c0-40.482-32.817-73.3-73.3-73.3s-73.3 32.817-73.3 73.3c0 40.482 32.817 73.3 73.3 73.3s73.3-32.817 73.3-73.3zM654.868 446.025c0-40.482-32.817-73.3-73.3-73.3s-73.3 32.817-73.3 73.3c0 40.482 32.817 73.3 73.3 73.3s73.3-32.817 73.3-73.3zM654.868 162.775c0-40.482-32.817-73.3-73.3-73.3s-73.3 32.817-73.3 73.3c0 40.482 32.817 73.3 73.3 73.3s73.3-32.817 73.3-73.3z" horiz-adv-x="651" data-tags="z-a" />
</font>
</defs>
</svg>
